<?xml version="1.0" standalone="no"?>
<!DOCTYPE svg PUBLIC "-//W3C//DTD SVG 1.1//EN" "http://www.w3.org/Graphics/SVG/1.1/DTD/svg11.dtd" >
<svg xmlns="http://www.w3.org/2000/svg">
<metadata>Generated by IcoMoon</metadata>
<defs>
<font id="icomoon" horiz-adv-x="1024">
<font-face units-per-em="1024" ascent="960" descent="-64" />
<missing-glyph horiz-adv-x="1024" />
<glyph unicode="&#x20;" horiz-adv-x="512" d="" />
<glyph unicode="&#xe900;" glyph-name="guard" horiz-adv-x="797" d="M301.069 927.829c-1.451-0.341-2.389-1.323-3.456-2.005 0 0-137.472-89.429-267.691-89.429-8.32-0.171-16.171-8.064-16.299-16.427v-234.581c0-16.939 2.133-33.067 3.968-48.725l579.84 245.547 0.469 37.76c-0.171 8.363-7.936 16.299-16.256 16.427-131.755 0-266.795 89.429-266.795 89.429-3.371 2.091-9.301 3.029-13.781 2.005v0zM597.432 748.885l-575.403-242.005c10.112-46.549 27.989-88.064 49.323-123.776l526.080 219.691v146.091zM597.901 567.509l-508.331-212.267c86.571-116.139 216.917-160 216.917-160s279.893 93.696 291.413 372.267v0z" />
<glyph unicode="&#xe901;" glyph-name="persent" horiz-adv-x="1080" d="M484.123 924.611c-15.409 3.5-68.551-39.654-84.386-39.654s-68.764 43.111-84.173 39.611c-15.452-3.543-44.263-65.136-58.52-71.965s-80.929 8.58-93.265-1.238c-12.378-9.817-11.482-77.087-21.342-89.38-9.817-12.293-76.917-27.019-83.789-41.19-6.829-14.171 23.476-75.039 19.976-90.405-3.5-15.281-57.197-57.111-57.154-72.819s53.995-57.282 57.495-72.563c3.543-15.324-26.806-76.148-19.933-90.277 6.915-14.171 74.142-28.812 84.002-41.062 9.903-12.25 9.134-80.033 21.513-89.807 12.421-9.775 78.88 6.573 93.137-0.213 14.299-6.787 42.898-68.465 58.306-71.923 15.494-3.5 68.593 39.654 84.429 39.654 15.793 0 68.721-43.111 84.173-39.611 15.409 3.543 44.221 65.136 58.477 71.965 14.256 6.872 80.929-8.58 93.307 1.238s11.525 77.813 21.385 90.106c9.817 12.293 76.874 26.293 83.746 40.465 6.829 14.171-23.476 75.039-19.976 90.362 3.457 15.324 57.111 57.154 57.111 72.862 0 15.75-53.953 57.282-57.495 72.606-3.543 15.281 26.806 76.106 19.933 90.234-6.872 14.171-74.1 28.769-84.002 41.062s-9.134 80.033-21.555 89.807c-12.378 9.775-78.838-6.573-93.094 0.256-14.299 6.787-42.855 68.423-58.306 71.923v-0.043zM497.995 729.203c20.19-0.896 39.611-12.464 27.489-30.989l-202.323-308.35c-21.854-29.281-77.087-2.817-60.611 19.336l204.67 309.545c5.89 7.939 18.653 11.012 30.775 10.458zM276.55 745.38c12.464-0.171 25.44-2.177 36.196-7 32.269-14.555 53.611-48.489 52.843-87.502-1.067-51.989-42.983-93.606-92.71-93.051-49.727 0.512-88.527 43.068-87.46 95.057 1.067 52.032 41.446 93.051 91.131 92.496v0zM276.379 691.812c-21.342 0.213-38.117-17.415-38.586-39.696-0.427-22.281 15.537-39.91 36.836-40.166 21.299-0.213 39.525 17.287 39.995 39.568 0.299 13.915-6.018 26.080-16.135 33.379-6.104 4.396-14.128 6.872-22.11 6.915v0zM533.893 558.466c18.653-0.171 36.239-6.445 50.581-16.689 23.86-17.074 38.373-45.202 37.69-77.685-1.067-52.032-42.257-93.692-91.984-93.179s-89.21 43.111-88.185 95.143c1.067 52.032 42.172 92.966 91.899 92.411v0zM533.679 504.898c-21.299 0.256-38.843-17.33-39.269-39.611-0.47-22.324 15.409-40.635 36.708-40.849 21.299-0.256 40.379 17.885 40.849 40.166 0.299 16.732-9.476 30.178-23.22 36.41-4.567 2.049-9.732 3.799-15.067 3.884v0z" />
<glyph unicode="&#xe902;" glyph-name="phone" d="M199.779 960c-11.964 0.288-24.36-4.757-35.939-14.51-28.924-23.159-43.002-39.062-69.38-65.007-24.6-24.216-36.323-66.449-28.492-111.517 22.15-116.466 109.835-232.403 194.254-316.966 0.192-0.192 0.288 0.144 0.48 0 0.192-0.192-0.192-0.336 0-0.529 84.418-84.611 199.827-172.777 316.101-194.974 44.972-7.928 88.166 3.363 112.334 27.963 25.945 26.426 42.281 42.57 65.44 71.542 19.555 23.111 18.642 50.93-2.018 67.986-49.104 40.552-86.292 65.776-134.291 94.989-22.87 13.934-46.606 13.309-62.413-12.492-10.234-16.672-21.381-34.306-35.459-68.515-6.294-17.201-18.594-20.708-37.477-11.483-40.888 20.036-106.712 76.491-138.327 108.009-0.144 0.144-0.288 0.288-0.48 0.48-0.144 0.144-0.817-0.192-1.009 0-31.471 31.663-87.349 98.064-107.337 139-9.225 18.93-6.198 31.759 10.955 38.005 34.161 14.126 52.275 25.273 68.947 35.507 25.753 15.855 25.849 39.11 11.964 62.029-29.116 48.095-55.398 84.755-95.854 134.003-9.657 8.841-21.045 16-31.999 16.48zM374.093 937.995c-14.991 0-30.077-1.153-44.972-2.979-41.080-4.997-24.408-65.92 7.015-59.53 91.914 11.291 187.815-18.546 258.637-89.511 70.581-70.629 100.322-166.29 89.415-258.012-3.171-35.266 56.359-46.029 59.915-6.967 13.021 109.355-22.726 223.226-106.856 307.5-72.935 73.031-168.020 109.499-263.153 109.499zM42.522 680.992c-13.117 0.625-26.762-7.447-30.99-27.483-0.192-1.105-2.258-12.492-2.498-13.501-24.456-118.532 9.705-246.192 101.908-338.539 92.058-92.202 219.286-126.315 337.53-102.004 2.739 0.577 11.291 2.354 13.982 3.027 40.215 8.024 37.429 65.392-11.483 59.002-1.297-0.336-11.147-2.258-12.492-2.498-99.601-21.045-207.467 7.207-285.11 84.995-77.836 77.932-106.184 186.566-84.899 286.504 0.24 1.057 2.258 12.396 2.498 13.501 4.564 21.237-11.627 36.179-28.444 36.996z" />
<glyph unicode="&#xe903;" glyph-name="pig" horiz-adv-x="1080" d="M635.779 957.563c-49.129-2.134-94.332-39.91-102.869-88.313-10.927-52.203 22.964-108.161 73.545-124.638 47.294-17.372 105.088 2.732 130.741 45.843 27.787 42.983 18.482 104.832-20.19 138.467-19.421 17.757-44.776 27.873-71.154 28.641-3.287 0.171-6.829 0.128-10.073 0v0zM426.67 942.282c-48.916-3.329-93.393-37.605-110.552-83.063-22.366-57.282 6.104-127.839 62.020-154.218 54.977-28.513 128.821-8.451 162.456 42.983-1.793 0.256-80.374 73.032-25.013 166.126-21.726 18.866-53.526 28.171-78.838 28.171-3.244 0.085-6.787 0.213-10.073 0v0zM183.926 733.172c-22.58-3.031-25.739-22.11-16.348-46.312 5.336-13.574 12.848-29.922 19.251-45.331-34.19-33.379-57.495-59.459-67.782-107.436l-38.458-0.939c-33.166 0-53.227-25.44-49.044-57.794l1.451-46.782c4.226-32.141 17.799-56.813 50.965-56.813h49.983c17.031-23.69 39.013-45.245 61.508-64.922l-7.683-61.124c-2.177-17.757 4.695-21.385 15.878-30.050 10.927-8.494 30.775-11.141 48.532-12.891 17.799-1.793 35.47-0.726 49.983 3.329 18.397 3.756 26.934 11.61 26.934 26.763v18.098c24.159-4.909 49.385-8.58 75.465-8.58 34.403 0 67.227 4.994 98.045 13.36l2.433-17.671c0.896-14.385 11.823-24.586 25.952-30.050 14.086-5.506 32.397-6.744 49.514-5.72 17.116 0.982 33.763 5.634 46.141 12.891 6.189 3.585 11.141 8.067 14.385 13.83 3.287 5.72 4.738 12.464 2.903 19.549-6.147 23.306-4.012 50.453-10.586 73.545 51.52 43.068 74.526 96.85 74.526 160.876 0 7.598-0.598 15.494-1.451 22.921 6.573 1.152 13.147 2.348 19.208 5.25 14.769 7 26.806 18.866 34.617 32.952 12.592 22.665 12.122 49.812 0 72.563-12.080 22.751-34.105 37.050-60.057 39.611-26.464 5.506-38.629-50.709-6.232-57.282 4.909-0.768 12.677-5.89 14.854-10.031 2.305-4.311 2.305-13.574 0-17.671-1.665-3.073-5.293-5.122-8.622-6.659-2.646-1.238-7-1.537-10.073-1.451-26.763 60.526-82.252 109.186-154.346 136.546-24.799-26.336-59.843-42.94-99.027-42.94-47.465 0-89.551 24.458-113.881 61.081-16.263-3.372-31.97-8.921-49.983-17.159-21.854 22.238-53.227 33.037-77.429 32.44-4.055 0.256-8.281 0.427-11.525 0v0z" />
<glyph unicode="&#xe904;" glyph-name="present" horiz-adv-x="853" d="M174.663 932.992c-3.584 0-6.955-0.085-10.581-0.512-21.589-2.517-42.667-11.947-59.563-26.709-24.149-21.12-33.365-51.029-27.904-77.312 5.504-26.283 22.144-47.872 44.715-68.224 28.075-25.344 65.365-46.805 107.605-60.16h170.581c42.283 13.397 79.744 34.987 107.648 60.16 22.528 20.352 38.699 41.941 44.203 68.224 5.461 26.283-2.773 56.192-26.923 77.312-22.528 19.669-52.309 29.056-81.664 26.709s-57.515-14.379-80.725-33.408c-18.517-15.147-35.669-34.603-48.555-57.728-12.8 22.955-28.715 42.624-47.061 57.728-23.211 19.029-51.371 31.061-80.725 33.408-3.669 0.299-7.467 0.427-11.051 0.512zM173.212 876.672c2.773 0.213 5.291 0.213 8.192 0 11.605-0.939 25.344-5.376 40.363-17.664 22.443-18.475 39.168-56.832 48.512-101.205-38.912 9.813-80.811 20.352-103.765 41.045-16.213 14.635-26.069 29.056-28.373 40.107-2.304 11.093 0.341 17.408 11.051 26.752 7.808 6.741 15.744 10.197 24.021 10.965zM447.602 876.672c11.605 0.896 20.309-1.92 30.72-10.965 10.624-9.344 11.947-15.659 9.643-26.752-2.347-11.051-12.203-25.472-28.373-40.107-22.997-20.693-62.976-31.232-101.845-41.045 9.344 44.373 26.027 82.731 48.512 101.205 14.976 12.288 29.739 16.725 41.344 17.664zM29.084 673.835c-12.117 0-21.632-8.875-21.632-20.053v-433.792c0-11.179 9.515-20.053 21.632-20.053h236.885v473.899h-236.885zM375.026 673.835v-473.899h236.416c12.117 0 21.589 8.875 21.589 20.053v433.792c0 11.179-9.515 20.053-21.589 20.053h-236.416z" />
<glyph unicode="&#xe905;" glyph-name="running_man" horiz-adv-x="1402" d="M1026.371 539.081h-286.599c-4.853 0-8.735 3.64-8.735 8.29v169.727c0 4.934 3.397 10.514 3.397 10.514h296.103c0 0 4.529-3.437 4.529-10.878v-169.363c0-4.651-3.842-8.29-8.695-8.29zM775.4 778.447c2.467 3.478 5.985 6.39 10.272 6.39h196.377c4.287 0 8.169-2.912 10.676-6.39l32.473-38.216h-283.081l33.282 38.216zM674.178 556.43c-30.856-11.849-61.671-23.941-92.568-35.668-10.838-3.559-23.172-4.084-33.363 1.698-6.47 2.831-10.919 8.209-14.761 13.831l-51.561 79.303c15.933 25.477 31.826 50.914 47.76 76.391l56.98-88.564c22.404 8.614 44.727 17.591 67.171 26.043 16.54 5.5 37.407-0.243 46.061-15.974 5.055-9.22 7.279-20.503 3.397-30.613-4.489-13.143-16.176-22.283-29.117-26.448zM569.357 769.186c-52.936-2.871-98.067 37.65-100.979 90.222s37.933 97.38 90.869 100.292c3.276 0.162 6.47 0.121 9.706 0 48.569-2.265 88.524-40.966 91.233-90.222 2.912-52.613-37.892-97.42-90.829-100.292zM494.988 692.39c-28.551-45.9-56.697-91.759-85.329-137.618 40.561-31.786 81.446-62.723 121.684-94.832 12.011-12.86 21.029-29.926 18.602-47.841-2.265-57.627-4.489-115.699-7.198-173.286-2.871-27.985-33.444-48.164-60.418-39.47-22.808 5.985-37.528 30.371-34.212 53.3 1.86 49.094 3.235 97.38 5.055 146.434-56.697 43.716-113.637 87.472-170.253 131.35-11.040 10.353-17.389 25.639-19.856 40.278-2.588 16.783 6.592 31.907 15.65 45.293 26.771 43.15 53.057 86.138 79.829 129.287l-67.576-5.459c-22.485-35.911-44.808-72.509-67.576-108.258-13.871-19.452-45.9-18.764-60.013 0.404-11.485 13.709-10.312 34.131 0.445 47.841 24.83 40.076 49.782 80.395 74.774 120.431 8.29 12.658 23.738 16.338 38.014 16.338 52.087 3.963 104.214 7.805 156.301 11.768 14.72-1.698 22.768-15.731 32.959-24.749 16.944-18.845 35.79-38.014 44.767-62.116 4.61-18.036-6.066-34.617-15.65-49.094zM238.597 524.118c2.224 3.357 4.489 6.754 6.754 10.070 2.224-4.408 4.287-9.18 6.754-13.426l65.473-52.451c-30.775-39.914-64.259-77.766-94.185-118.328-8.371-9.625-20.867-15.327-33.404-17.187-12.536-1.618-24.547 2.952-35.062 9.22-30.573 16.742-61.146 33.12-91.678 49.944-18.198 10.555-28.51 33.97-21.11 54.109 5.823 17.43 24.143 28.672 42.22 28.146 11.485 0.243 21.676-4.934 31.301-10.514 17.389-9.625 34.94-19.33 52.37-28.955 22.889 30.33 48.366 58.557 70.568 89.373z" />
<glyph unicode="&#xe906;" glyph-name="star" d="M369.237 925.269c-203.776 0-368.981-164.096-368.981-366.507s165.205-366.507 368.981-366.507c203.819 0 369.024 164.096 369.024 366.507s-165.205 366.507-369.024 366.507zM365.397 815.488c9.984 0.256 70.613-139.477 78.805-145.067s161.451-12.629 164.821-21.931c3.285-9.387-111.061-109.867-113.877-119.339s37.675-156.672 29.781-162.731c-7.936-6.016-139.947 71.381-149.888 71.125-9.984-0.299-138.368-84.352-146.56-78.763-8.235 5.632 25.429 154.368 22.101 163.712-3.371 9.301-123.477 104.107-120.619 113.579s155.435 24.491 163.371 30.549c7.936 6.016 62.123 148.608 72.064 148.864z" />
<glyph unicode="&#xe907;" glyph-name="baloon" horiz-adv-x="768" d="M289.098 959.712c-159.131 0-288.714-128.477-288.714-287.849 0-41.416 9.225-81.247 24.888-116.85h-1.297l260.703-363.859 257.483 342.815 10.811 21.045h-1.249c15.663 35.603 24.84 75.434 24.84 116.85 0 159.372-128.285 287.849-287.465 287.849v0zM288.233 767.764c53.092 0 95.613-42.522 95.613-95.565s-42.522-96.382-95.613-96.382c-53.044 0-96.43 43.338-96.43 96.382s43.386 95.565 96.43 95.565z" />
<glyph unicode="&#xe908;" glyph-name="delivery" horiz-adv-x="1409" d="M463.245 922.498c-19.792 0-35.837-15.853-35.837-35.597v-320.519c0-19.744 16.045-35.645 35.837-35.645h537.898c19.792 0 35.837 15.901 35.837 35.645v320.519c0 19.744-16.045 35.597-35.837 35.597h-537.898zM265.514 815.658c-74.221 0-86.663-27.479-115.439-63.412l-92.476-115.199c-29.496-48.376-24.644-74.461-24.644-91.851v-184.183c0-42.515 38.384-43.956 73.404-43.956 0 73.981 60.29 135.231 134.511 135.231 74.173 0 134.414-61.25 134.414-135.231h301.976c0 73.981 60.29 135.231 134.462 135.231 74.221 0 134.511-61.25 134.511-135.231h55.486c24.068 0 35.261 21.666 35.261 43.956l0.576 109.626c-0.865 14.94-10.473 23.635-24.644 24.5h-587.763c-25.125-1.249-31.946 9.896-31.898 21.714v249.853c0 25.989-16.478 48.952-49.913 48.952h-77.824zM259.317 744.464l35.837-0.576c21.426-0.24 26.374-5.428 26.374-23.395v-131.868c0-12.923-9.608-22.242-24.116-22.242h-130.571c-22.579 0-37.423 15.805-22.915 39.488 0 0 55.534 84.742 72.251 110.203 13.595 20.705 32.859 28.439 43.139 28.391v0zM240.87 406.65c-54.717 0-98.673-44.869-98.673-99.057 0-54.14 43.956-97.376 98.673-97.376 54.621 0 99.153 43.236 99.153 97.376 0 54.189-44.533 99.057-99.153 99.057v0zM811.723 406.65c-54.669 0-99.105-44.869-99.105-99.057 0-54.14 44.437-97.376 99.105-97.376 54.717 0 98.673 43.236 98.673 97.376 0 54.189-43.956 99.057-98.673 99.057z" />
<glyph unicode="&#xe909;" glyph-name="tick" d="M0.14 592.356l311.401-335.365 407.19 598.837-47.929 95.789-383.225-407.19-263.471 143.718-23.965-95.789z" />
<glyph unicode="&#xe90a;" glyph-name="cart" horiz-adv-x="1089" d="M54.103 934.605c-49.731 0-52.518-80.29 3.123-80.29h87.257l144.868-448.442c5.91-14.847 20.709-25.226 36.565-25.178h301.412c21.045 0 40.553 18.931 40.553 40.121s-19.508 33.827-40.553 33.827h-274.889l-16.385 51.941h319.334c6.631 0 12.973 4.084 15.616 10.234l119.114 291.898c4.517 10.331-4.324 23.784-15.568 23.592l-541.272-0.769-24.937 78.656c-6.15 14.607-21.67 24.553-37.43 24.409h-116.807zM358.638 355.518c-19.94-1.441-38.295-12.637-49.058-31.472-17.202-30.079-7.207-68.374 22.583-85.768 29.838-17.346 67.701-7.255 84.903 22.823s7.207 69.191-22.583 86.584c-11.195 6.487-23.88 8.697-35.845 7.832v0zM582.979 355.518c-19.988-1.441-38.343-12.637-49.106-31.472-17.154-30.079-7.159-68.374 22.583-85.768 29.838-17.346 67.701-7.255 84.951 22.823 17.154 30.079 7.207 69.191-22.583 86.584-11.195 6.487-23.88 8.697-35.845 7.832v0z" />
<glyph unicode="&#xe90b;" glyph-name="arrows" horiz-adv-x="866" d="M644.045 589.338l-7.38-5.904-243.605-333.584-92.164 73.802 190.527 267.34-190.527 267.34 92.164 73.802 243.605-333.584 7.38-5.904-1.358-1.653 1.358-1.653zM348.837 592.644l-1.358-1.653 1.358-1.653-7.38-5.904-243.605-333.584-92.164 73.802 190.527 267.34-190.527 267.34 92.164 73.802 243.605-333.584 7.38-5.904z" />
<glyph unicode="&#xe90c;" glyph-name="slide_arrow" horiz-adv-x="531" d="M27.269 442.349l-0.607-0.796 3.489-2.807 453.367-496.223 43.88 35.157-428.070 464.668 428.070 464.631-43.88 35.157-453.367-496.223-3.489-2.807 0.607-0.759z" />
<glyph unicode="&#xe90d;" glyph-name="vk" horiz-adv-x="1654" d="M1615.636 819.476c-11.973 31.902-84.519 23.788-84.519 23.788l-241.113-1.654c0 0-18.038 2.521-31.193-5.199-12.918-7.877-21.268-25.442-21.268-25.442s-38.203-99.486-88.773-184.005c-107.362-178.806-150.528-187.786-168.094-177.073-40.566 25.836-30.405 103.818-30.405 159.429 0 172.82 26.939 245.13-52.382 263.719-25.915 5.908-45.292 10.319-112.167 10.634-86.252 0.945-158.878 0-200.153-19.771-27.806-13.312-48.916-42.614-35.682-44.426 15.833-1.575 51.988-9.452 70.892-34.737 24.97-32.768 24.025-106.969 24.025-106.969s14.178-203.382-33.398-228.746c-32.532-17.172-76.879 18.117-172.426 180.145-49.231 82.708-86.174 174.474-86.174 174.474s-7.089 17.172-19.85 26.703c-15.36 10.791-36.943 14.651-36.943 14.651l-229.218-0.866c0 0-34.343 0.394-47.104-14.257-11.028-13.312-0.866-37.967-0.866-37.967s179.515-410.703 382.346-617.472c186.132-189.991 397.785-172.426 397.785-172.426h95.862c0 0 28.672-2.048 43.559 13.391 13.706 14.257 13.233 34.422 13.233 34.422s-1.812 126.74 57.659 145.329c58.919 18.59 134.617-121.068 214.725-174.868 60.258-40.487 106.417-31.665 106.417-31.665l214.331 3.151c0 0 111.695 7.010 58.447 93.105-3.938 7.404-30.72 63.803-159.271 180.618-134.144 121.856-116.106 102.164 45.765 313.659 98.54 128.394 138.24 206.848 125.952 240.325z" />
<glyph unicode="&#xe90e;" glyph-name="gplus" horiz-adv-x="1536" d="M1388.672 375.040c-0.512-45.76-0.704-91.264-0.896-137.024-45.12 0.32-90.176 0-135.104 0-0.512 45.76-0.512 91.264-0.896 136.768-45.12 0.576-90.496 0.704-135.552 0.96v136.32c45.056 0.192 90.176 0.448 135.552 0.896 0.192 45.504 0.704 91.2 1.088 136.832h134.912c0.192-45.632 0.576-91.328 0.896-136.832 45.056-0.512 90.368-0.704 135.424-0.896v-136.32c-45.056-0.256-90.368-0.512-135.424-0.704zM488.448-34.24c-47.104 1.856-93.888 10.304-138.112 25.344-187.584 62.144-324.032 252.864-319.936 452.8-9.344 247.040 205.12 475.264 450.112 478.208 124.864 10.752 246.272-38.208 340.864-118.016-38.784-42.944-78.208-85.568-120.32-125.312-22.784 13.952-46.848 26.752-71.744 37.632-66.112 28.928-138.24 42.752-208.832 17.728-144.448-41.472-234.816-203.072-203.136-349.376 2.752-12.544 4.736-25.152 9.344-37.312 10.752-36.352 29.76-68.288 53.248-96.32 2.624-3.2 4.544-6.976 7.36-10.048 8.448-9.216 18.432-16.768 27.904-24.896 5.952-5.056 11.2-10.944 17.536-15.552 82.24-59.456 194.176-78.208 289.664-35.712 79.040 28.48 131.136 102.080 154.112 181.312-90.688 1.792-181.376 0.704-272 3.2-0.256 54.4-0.448 108.608-0.256 163.008 0.064 0 0.064 0 0.128 0 0 0 0 0 0 0 0.128 0 0.32 0 0.512 0 150.976 0.32 302.208 0.704 453.376-0.576 0.192-2.816 0.192-5.696 0.32-8.448 7.936-130.88-12.288-269.824-96.384-374.72-88.256-114.624-232.576-168.448-373.76-162.944z" />
<glyph unicode="&#xe90f;" glyph-name="arrow" horiz-adv-x="1479" d="M70.542 505.685v-125.156h1083.392l-300.487-243.598 84.196-107.065 471.268 412.103v2.276l-471.268 411.989-84.196-106.951 300.487-243.598h-1083.392z" />
<glyph unicode="&#xe910;" glyph-name="more" horiz-adv-x="569" d="M2.276 448l-2.276-2.503 12.288-8.875 403.684-500.281 152.917 110.592-315.847 401.067 315.847 401.067-152.917 110.706-403.684-500.395-12.288-8.875 2.276-2.503z" />
<glyph unicode="&#xe911;" glyph-name="comment" horiz-adv-x="967" d="M489.358-1.195c-60.018 0-118.5 11.093-174.023 33.052l-315.904-95.573 61.895 330.24c-32.37 65.877-49.436 139.15-49.436 212.878 0 264.988 214.187 480.597 477.468 480.597s477.412-215.609 477.412-480.597c0-264.988-214.13-480.597-477.412-480.597zM489.358 872.619c-215.438 0-390.656-176.412-390.656-393.216 0-64.626 15.986-128.796 46.251-185.515l7.225-13.596-41.017-218.965 209.067 63.26 14.564-6.315c49.038-21.276 101.092-32.085 154.567-32.085 215.381 0 390.656 176.412 390.656 393.216s-175.275 393.216-390.656 393.216zM663.268 370.176h-347.25c-23.95 0-43.406 19.57-43.406 43.691s19.456 43.691 43.406 43.691h347.25c24.007 0 43.406-19.57 43.406-43.691s-19.399-43.691-43.406-43.691zM663.268 544.939h-347.25c-23.95 0-43.406 19.57-43.406 43.691s19.456 43.691 43.406 43.691h347.25c24.007 0 43.406-19.57 43.406-43.691s-19.399-43.691-43.406-43.691z" />
<glyph unicode="&#xe912;" glyph-name="otziv" horiz-adv-x="928" d="M818.144 384.64h-123.744l-145.28-158.592c-7.904-6.368-17.344-9.632-26.912-9.632-6.208 0-12.448 1.376-18.304 4.16-14.496 6.944-23.488 21.28-23.488 37.408v126.656h-42.208v42.208h84.416v-167.584l153.184 167.584h142.336c23.296 0 42.24 18.976 42.24 42.24v401.056c0 23.296-18.944 42.24-42.24 42.24h-717.696c-23.264 0-42.208-18.944-42.208-42.24v-401.056c0-23.264 18.944-42.24 42.208-42.24h42.208v-42.208h-42.208c-46.56 0-84.448 37.856-84.448 84.448v401.056c0 46.592 37.888 84.448 84.448 84.448h717.696c46.592 0 84.448-37.856 84.448-84.448v-401.056c0-46.592-37.856-84.448-84.448-84.448zM290.432 236.864c-69.856 0-126.656 56.832-126.656 126.656v21.12c0 69.856 56.8 126.656 126.656 126.656 69.824 0 126.656-56.8 126.656-126.656v-21.12c0-69.824-56.832-126.656-126.656-126.656zM374.848 384.64c0 46.56-37.856 84.448-84.416 84.448s-84.448-37.888-84.448-84.448v-21.12c0-46.56 37.888-84.416 84.448-84.416s84.416 37.856 84.416 84.416v21.12zM227.104 616.864h295.52v-42.24h-295.52v42.24zM227.104 785.728h443.296v-42.24h-443.296v42.24zM670.4 659.072h-443.296v42.208h443.296v-42.208zM290.432 217.952c71.296 0 211.072-38.4 211.072-127.2v-128.32h-42.208v128.32c0 48.48-102.432 84.992-168.864 84.992s-168.896-36.512-168.896-85.024v-128.288h-42.208v128.288c0 88.832 139.776 127.232 211.104 127.232z" />
<glyph unicode="&#xe913;" d="M1011.671 563.18l-367.862 12.575-138.363 343.286-132.137-343.286-373.309-12.575 290.98-242.401-98.796-350.044 313.221 197.919 314.081-197.919-94.29 350.044z" />
<glyph unicode="&#xe914;" d="M946.708 542.863l-320.635 10.936-120.586 299.213-115.139-299.213-325.386-10.936 253.624-211.313-86.098-305.070 272.957 172.524 273.777-172.524-82.166 305.070z" />
<glyph unicode="&#xe915;" glyph-name="star_big" d="M1011.671 563.18l-367.862 12.575-138.363 343.286-132.137-343.286-373.309-12.575 290.98-242.401-98.796-350.044 313.221 197.919 314.081-197.919-94.29 350.044z" />
<glyph unicode="&#xe916;" glyph-name="response" d="M1024.114 47.957c0.057-30.037-11.548-58.197-32.711-79.417-21.675-21.675-50.347-32.597-79.019-32.597-28.103 0-56.149 10.411-77.71 31.289l-131.584 127.431c-80.782-55.524-165.66-85.447-239.73-85.447-56.434 0-106.553 17.124-143.588 52.793-66.219 63.886-74.24 170.894-23.723 288.54l-83.797 86.585 5.916 5.746c-29.696-10.638-58.652-16.839-85.049-16.839h-0.057c-39.481 0-72.875 12.572-96.654 36.409-38.343 38.343-46.706 99.385-23.552 171.748 20.537 63.943 64.114 131.527 122.709 190.18 83.57 83.684 185.060 135.623 264.875 135.623 39.481 0 72.875-12.572 96.654-36.352 41.188-41.244 44.544-109.454 17.806-183.979l10.126 10.069 87.211-87.324c114.688 47.388 219.876 40.22 283.819-21.447 36.409-35.157 55.979-84.651 56.491-143.189 0.74-77.426-31.516-164.409-88.576-244.907l126.976-125.668c21.276-21.106 33.109-49.266 33.166-79.246zM444.644 871.083c-9.671 9.728-24.519 14.62-44.203 14.62-59.961 0-143.36-44.715-212.423-113.892-50.404-50.46-87.495-107.406-104.448-160.313-14.052-43.861-12.117-79.076 5.348-96.54 9.671-9.671 24.519-14.564 44.146-14.564 59.961 0 143.36 44.658 212.423 113.835 101.831 101.945 136.306 219.648 99.157 256.853zM878.364 497.095c-0.398 38.684-11.719 69.063-33.849 90.396-36.295 34.93-100.75 39.31-173.682 16.27l3.527-3.527c31.403-31.403 39.765-82.887 23.552-144.896l-71.794 18.773c8.704 33.451 7.054 62.293-4.267 73.557l-133.461 133.689c-22.414-40.505-52.167-81.351-90.396-119.637-36.523-36.58-76.459-66.617-116.508-89.372l130.901-135.282c25.031-25.031 99.328-9.842 156.956 47.787l52.452-52.565c-52.622-52.679-117.589-80.953-173.568-80.953-34.759 0-66.048 10.923-88.747 33.621l-5.746 5.916c-24.348-74.24-19.684-139.378 17.522-175.332 72.761-70.030 242.517-20.821 370.745 107.577 84.878 84.935 137.102 189.952 136.363 273.977zM938.724 74.354l-121.742 120.548c-7.396-8.135-14.564-16.441-22.471-24.348-10.524-10.524-21.39-20.252-32.313-29.867l124.075-120.036c14.677-14.222 38.286-13.995 52.622 0.398 7.111 7.111 11.036 16.612 10.98 26.681 0 10.126-3.982 19.57-11.15 26.624z" />
<glyph unicode="&#xe917;" glyph-name="alert" d="M512-64c-282.331 0-512 229.669-512 512s229.669 512 512 512c282.331 0 512-229.669 512-512s-229.669-512-512-512zM512 919.040c-259.755 0-471.040-211.285-471.040-471.040s211.285-471.040 471.040-471.040c259.755 0 471.040 211.285 471.040 471.040s-211.285 471.040-471.040 471.040zM508.977 81.652c-202.313 0-366.348 164.035-366.348 366.348s164.035 366.348 366.348 366.348c202.313 0 366.299-164.035 366.299-366.348s-163.986-366.348-366.299-366.348zM558.519 669.769h-97.524v-293.303h97.524v293.303zM555.301 296.936c-10.923 10.191-25.844 15.019-42.667 14.97-16.189 0.049-30.72-4.876-41.496-14.97-11.020-10.142-16.482-24.576-16.335-40.521-0.146-15.994 5.315-30.427 16.238-40.765 10.679-10.24 25.112-15.311 41.204-15.311 0.098 0 0.244 0 0.39 0 16.872-0.049 31.89 4.876 42.764 15.36 10.923 10.289 16.335 24.722 16.238 40.716 0.098 15.945-5.315 30.379-16.335 40.521z" />
<glyph unicode="&#xe918;" glyph-name="trash" horiz-adv-x="956" d="M0 755.063v102.468h318.601v51.268c0 28.467 23.757 51.2 53.18 51.2h211.285c29.286 0 53.18-22.938 53.18-51.2v-51.268h319.488v-102.468h-955.733zM424.209 653.483v-513.229h-106.223v513.229h106.223zM637.133 652.595v-512.341h-106.155v512.341h106.155zM212.924 89.737c0-28.399 23.689-51.268 52.838-51.268h425.301c29.218 0 52.838 22.801 52.838 51.268v562.859h106.223v-562.859c0-84.992-71.134-153.737-159.061-153.737h-425.301c-87.859 0-158.993 68.881-158.993 153.737v562.859h106.155v-562.859z" />
<glyph unicode="&#xe919;" glyph-name="refresh" horiz-adv-x="887" d="M792.576 549.513l-293.342 0.137c0 0-56.047-0.751-6.485 48.811l108.271 91.204c-3.618-3.755-37.342 67.857-191.42 67.857-169.847 0-275.319-127.522-275.319-297.438 0-48.333-66.014-48.333-66.014-48.333-68.267 0-65.399 48.333-65.399 48.333 0 237.227 169.506 429.534 406.733 429.534 170.121 2.799 280.439-110.524 280.439-110.524l77.619 98.577c0 0 49.562 50.039 50.313-1.229l2.116-300.1c0 0 8.67-32.7-27.511-26.829zM26.692 346.487l293.274-0.137c0 0 56.047 0.683 6.485-48.811l-108.271-91.204c3.618 3.755 37.41-67.857 191.42-67.857 169.847 0 275.388 127.522 275.388 297.37 0 48.401 65.946 48.401 65.946 48.401 68.267 0 65.399-48.333 65.399-48.333 0-237.227-169.506-429.534-406.733-429.534-170.121-2.867-280.371 110.455-280.371 110.455l-77.687-98.509c0 0-49.562-50.039-50.244 1.229l-2.185 300.1c0 0-8.67 32.7 27.58 26.829z" />
<glyph unicode="&#xe91a;" glyph-name="hand" d="M595.042-37.766c-96.354 0-369.518 85.723-369.518 85.723v342.552c0 0 17.944 0 46.275 0 64.366 0 182.467 0 265.85 0 47.104 0 83.042 0 92.16 0 5.9 0 10.874-1.365 15.36-3.608 19.407-9.801 24.771-36.523 24.771-36.523s0-48.177 0-80.311c0-18.627-13.507-25.502-24.771-28.136-8.29-1.853-15.36-1.365-15.36-1.365h-174.031c29.257-22.235 65.048-43.544 81.871-52.858 19.115-11.703 69.534-27.989 69.534-27.989 172.276-46.958 238.543 115.712 282.283 123.758 5.803 0.926 11.508 0.146 17.018-1.999 48.226-18.773 90.112-142.58 90.014-142.531-160.67-187.49-401.457-176.713-401.457-176.713zM879.275 321.024c-71.534-90.356-191.537-129.17-191.537-129.17v40.131c10.386 2.389 26.185 5.022 26.185 78.848 0 73.728-3.511 72.119-3.511 72.119s-4.925 16.189-22.674 25.161v153.405h231.131l0.488-215.869c0 0-14.19 8.192-40.082-24.625zM581.047 436.102c-76.361 0-184.564 0-243.517 0v125.416h243.517v-125.416zM679.546 742.376h-98.45v-137.411h-243.517v135.899h224.744c-18.042 13.263-36.571 34.036-51.736 59.685-11.313 19.31-19.017 38.717-23.503 56.71-14.726 34.328-15.311 60.221-11.703 67.925 3.365-0.341 8.533-2.633 14.482-6.095 2.633 4.437 5.803 8.29 10.045 10.776 4.681 2.633 9.947 3.998 15.458 3.998 27.404 0 65.243-30.086 92.355-76.166 9.167-15.555 15.799-31.159 20.48-46.080 4.681 14.921 11.41 30.525 20.48 46.080 5.656 9.557 11.947 17.993 18.334 26.088 1.122 1.414 2.243 3.413 3.365 4.779 2.048 2.487 4.242 4.194 6.339 6.485 4.974 5.315 9.85 10.581 14.434 14.385 17.457 15.214 35.109 24.43 49.835 24.43 5.608 0 10.874-1.365 15.506-3.998 26.868-15.75 22.089-73.582-10.581-129.317-15.214-25.649-33.597-46.421-51.785-59.685h224.792v-135.899h-239.372v137.411zM597.772 801.963c-4.389 13.702-10.191 26.917-17.652 39.448-24.283 41.399-52.712 59.294-63.634 60.367-0.439-0.878-0.488-3.023-0.78-4.389 9.606-9.996 19.554-21.894 29.16-38.132 8.046-13.751 14.482-28.233 19.163-43.106l11.8-37.4-3.023-4.925c12.142-10.825 22.772-16.53 28.77-17.262l6.924 11.215-10.728 34.182zM718.312 816.835c25.112 42.91 25.698 76.312 21.797 84.943-4.535-0.439-12.337-4.486-21.163-10.971-3.218-15.896-10.045-35.84-23.308-58.417-14.677-25.015-30.379-41.545-43.739-52.175l-4.047-12.873 7.314-11.264c10.289 1.414 38.668 19.261 63.147 60.757zM27.502 433.323h139.215v-471.138h-139.215v471.138z" />
<glyph unicode="&#xe91b;" glyph-name="category_poppers" horiz-adv-x="731" d="M591.384-46.202h-192.658c-68.072 0-123.465 55.394-123.465 123.465v151.454c0 91.916 80.603 155.989 107.13 170.325l11.264 5.9c0.683 0.341 0.878 0.683 1.512 1.024-45.934 27.453-78.848 75.24-78.848 129.853v74.216c0 34.036 27.648 61.733 61.733 61.733h223.72c34.036 0 61.733-27.697 61.733-61.733v-74.216c0-53.102-29.013-100.011-71.485-127.805 1.56-1.024 2.389-2.048 4.437-3.072l9.606-5.022c28.184-15.214 108.788-79.287 108.788-171.203v-151.454c0-68.072-55.394-123.465-123.465-123.465zM601.771 535.82l0.049 74.216h-223.768v-74.216c0-51.054 51.834-92.599 102.888-92.599h23.064c51.102 0 97.768 41.545 97.768 92.599zM653.117 228.718c0 48.811-39.936 97.231-74.703 115.956l-10.142 5.364c-14.434 7.412-27.453 18.237-36.571 34.231-9.070-1.609-18.286-2.779-27.697-2.779h-23.064c-7.217 0-14.287 1.17-21.358 2.146-9.801-15.653-23.454-26.283-37.742-33.597l-8.436-4.389c-36.474-19.7-76.41-68.12-76.41-116.931v-151.454c0-34.036 27.697-61.733 61.733-61.733h192.658c34.036 0 61.733 27.697 61.733 61.733v151.454zM401.31 66.974c-17.067 0-30.866 13.8-30.866 30.866v151.503c0 17.018 13.8 30.818 30.866 30.818 17.018 0 30.866-13.8 30.866-30.818v-151.503c0-17.067-13.848-30.866-30.866-30.866zM432.030 497.201c-17.067 0-30.866 13.8-30.866 30.866v17.652c0 17.067 13.8 30.866 30.866 30.866s30.866-13.8 30.866-30.866v-17.652c0-17.067-13.8-30.866-30.866-30.866zM123.173 121.003v354.987c0 17.067 13.8 30.866 30.866 30.866 17.018 0 30.866-13.8 30.866-30.866v-354.987c0-17.067-13.848-30.866-30.866-30.866-17.067 0-30.866 13.8-30.866 30.866zM432.908 749.056c0.683 4.437 1.463 8.826 1.463 13.458v125.708h-213.48v-125.708c0-37.010 23.308-68.754 55.491-83.578l-2.341-64.171c-10.874 3.218-21.504 7.266-31.403 12.532-19.066-26.185-56.808-40.862-75.825-50.615l-8.387-4.34c-36.523-19.749-76.459-47.543-76.459-96.354v-385.853c0-34.036 27.697-61.733 61.733-61.733h109.032l-2.243-61.733h-106.789c-68.072 0-123.465 55.394-123.465 123.465v385.853c0 91.916 80.652 135.412 107.13 149.699l11.264 5.9c19.7 10.142 53.979 19.31 53.979 29.598h6.534c-24.478 27.16-39.985 62.366-39.985 101.327v125.708c0 34.036 27.697 61.733 61.733 61.733h213.48c34.036 0 61.733-27.697 61.733-61.733v-125.708c0-3.706-0.829-7.168-1.073-10.825l-62.123-2.633zM236.3 788.212v61.44c0 17.067 13.848 30.866 30.866 30.866 17.067 0 30.866-13.8 30.866-30.866v-61.44c0-17.067-13.8-30.866-30.866-30.866-17.018 0-30.866 13.8-30.866 30.866z" />
<glyph unicode="&#xe91c;" glyph-name="category_poppers-single" horiz-adv-x="683" d="M470.756-43.349h-265.956c-93.98 0-170.382 76.459-170.382 170.439v209.067c0 126.862 111.275 215.324 147.854 235.065l15.531 8.192c0.967 0.455 1.252 0.967 2.105 1.422-63.431 37.888-108.885 103.879-108.885 179.257v102.4c0 46.99 38.229 85.22 85.22 85.22h308.85c46.99 0 85.22-38.229 85.22-85.22v-102.4c0-73.33-39.993-138.069-98.645-176.469 2.162-1.365 3.3-2.788 6.087-4.21l13.312-6.94c38.855-20.992 150.13-109.454 150.13-236.316v-209.067c0-93.98-76.459-170.439-170.439-170.439zM485.092 760.092l0.057 102.4h-308.907v-102.4c0-70.485 71.566-127.829 142.052-127.829h31.858c70.485 0 134.94 57.344 134.94 127.829zM555.975 336.156c0 67.356-55.125 134.201-103.083 160.085l-14.052 7.339c-19.911 10.24-37.888 25.202-50.46 47.275-12.516-2.219-25.202-3.812-38.229-3.812h-31.858c-9.956 0-19.684 1.593-29.468 2.901-13.54-21.561-32.427-36.238-52.11-46.364l-11.605-6.030c-50.404-27.193-105.529-94.037-105.529-161.394v-209.067c0-46.99 38.229-85.22 85.22-85.22h265.956c46.99 0 85.22 38.229 85.22 85.22v209.067zM208.384 112.868c-23.552 0-42.61 19.058-42.61 42.61v209.124c0 23.552 19.058 42.61 42.61 42.61 23.495 0 42.61-19.058 42.61-42.61v-209.124c0-23.552-19.115-42.61-42.61-42.61zM250.823 706.788c-23.552 0-42.61 19.001-42.61 42.553v24.405c0 23.552 19.058 42.61 42.61 42.61 23.495 0 42.61-19.058 42.61-42.61v-24.405c0-23.552-19.115-42.553-42.61-42.553z" />
<glyph unicode="&#xe91d;" glyph-name="category_poppers-single-big" horiz-adv-x="573" d="M425.984-61.911h-291.308c-67.666 0-122.716 55.009-122.716 122.716v368.108c0 91.341 80.118 134.554 106.455 148.767l11.223 5.898c16.302 8.397 17.736 16.179 17.777 24.453-31.908 27.525-53.699 64.635-53.699 105.636v145.408c0 33.833 27.525 61.358 61.358 61.358h253.092c33.833 0 61.358-27.525 61.358-61.358v-145.408c0-41.124-21.955-78.356-53.985-105.923-0.532-8.192-0.655-15.892 15.483-24.166l9.585-4.997c27.976-15.114 108.093-58.327 108.093-149.668v-368.108c0-67.707-55.050-122.716-122.716-122.716zM155.075 859.075v-145.408c0-50.749 64.307-92.037 115.057-92.037h22.938c50.749 0 115.098 41.288 115.098 92.037l0.041 145.408h-253.133zM487.342 428.913c0 48.497-39.69 76.145-74.22 94.781l-10.117 5.284c-17.572 9.052-33.137 22.979-41.656 45.752-22.036-9.052-45.343-14.459-68.28-14.459h-22.938c-23.101 0-46.612 5.53-68.772 14.705-9.257-22.938-26.051-36.905-43.704-45.998l-8.397-4.342c-36.25-19.579-75.94-47.227-75.94-95.724v-368.108c0-33.833 27.525-61.358 61.358-61.358h291.308c33.833 0 61.358 27.525 61.358 61.358v368.108zM144.916 60.805c-16.957 0-30.679 13.722-30.679 30.679v337.428c0 16.957 13.722 30.679 30.679 30.679 16.916 0 30.679-13.722 30.679-30.679v-337.428c0-16.957-13.763-30.679-30.679-30.679zM221.553 708.547c-16.957 0-30.679 13.722-30.679 30.679v61.071c0 16.957 13.722 30.679 30.679 30.679 16.916 0 30.679-13.722 30.679-30.679v-61.071c0-16.957-13.763-30.679-30.679-30.679z" />
<glyph unicode="&#xe91e;" glyph-name="category_poppers-tab" horiz-adv-x="1252" d="M1217.593 239.502l-81.237-80.156c-11.435-11.378-29.412-20.992-57.628-20.992-28.9 0-68.608 10.126-122.994 38.798l24.178 45.739c66.389-35.1 93.867-21.049 105.756-9.102l0.967 0.91-5.746 5.746c29.753 29.81-36.011 137.614-208.896 310.5-172.942 172.885-291.044 241.607-320.796 211.911l-1.479 1.536c-12.516-14.564-22.585-55.353 40.732-152.917l-43.349-28.16c-72.533 111.787-90.396 195.413-50.176 235.577l81.294 80.156c23.324 23.381 86.585 49.721 195.698-8.59 76.402-40.846 163.783-108.658 246.044-190.919 82.261-82.318 150.073-169.7 190.919-246.044 58.368-109.056 30.151-170.553 6.713-193.991zM1147.506 389.575c-38.457 72.021-103.083 155.079-181.874 233.87-78.791 78.734-131.641 122.027-203.605 160.54-67.812 36.238-122.766 45.625-134.884 33.564l-10.468-9.842c90.51-30.777 208.043-117.362 309.589-218.908 105.415-105.358 194.276-225.678 222.094-316.188l13.255 12.402c12.004 12.004 22.187 36.75-14.108 104.562zM942.023 396.629v-267.662c0-101.774-227.499-155.022-452.21-155.022s-452.21 53.248-452.21 155.022v267.662c0 101.774 227.499 158.606 452.21 158.606s452.21-56.832 452.21-158.606zM124.814 164.523c0-42.098 120.491-103.31 364.999-103.31s366.763 61.212 366.763 103.31l-0.796 135.623c-86.585-41.358-226.759-63.886-365.966-63.886-138.809 0-278.585 22.414-365.227 63.545l0.228-135.282zM124.416 400.1c0-38.457 142.336-87.154 365.397-87.154s365.397 48.697 365.397 87.154c0 38.457-142.336 87.154-365.397 87.154s-365.397-48.697-365.397-87.154z" />
<glyph unicode="&#xe91f;" glyph-name="category_smazka" horiz-adv-x="811" d="M715.691 571.349l-298.624-230.187c-23.509-23.083-54.613-35.755-87.595-35.755-12.117 0-23.808 2.261-35.115 5.589l-99.072-99.072-129.152 129.152 99.029 99.029c-12.501 42.581-2.56 90.368 30.976 123.861l238.592 289.237 74.923 75.051 281.6-281.6-75.563-75.307zM195.157 387.797l-46.677-46.677 46.677-46.677 46.677 46.677-46.677 46.677zM261.76 548.181c-29.483-29.611-29.483-75.819-1.067-104.235l38.016-38.059c13.781-13.739 32.085-21.291 51.541-21.291s37.76 7.552 51.541 21.291l3.541-2.176 21.419 16.896-148.053 148.053-16.939-20.48zM427.861 749.483l-115.499-139.989 155.989-155.947 142.592 112.853-183.083 183.083zM503.339 832.725l-38.827-38.827-1.749-2.133 191.275-191.275 3.029 2.389 38.059 38.059-191.787 191.787zM106.752 199.979l8.32-20.736c4.907-12.331 24.576-52.608 70.101-52.608 5.717 0 11.819 0.597 18.048 1.877 25.301 5.077 58.24 16.427 93.099 28.416 53.717 18.517 109.227 37.632 154.027 40.533 86.613 5.547 149.931-42.24 149.931-112.512 0-51.243-29.013-87.253-88.704-110.037l-18.133-6.912-7.211 18.005c-11.861 29.611-38.741 37.333-82.219 26.069l-169.045-43.776c-26.453-7.381-52.48-11.179-77.013-11.179-85.291 0-134.997 44.331-146.347 88.277-14.336 55.168 14.635 110.251 75.605 143.787l19.541 10.795zM89.259 58.709c32.512-125.44 365.056 93.355 415.957-12.203 35.072 17.237 15.957 20.011 15.957 37.291 0 103.893-133.717 46.507-199.339 23.936-25.813-8.875-165.461-83.797-218.197 1.664-27.861-20.395-21.461-23.467-14.379-50.688z" />
<glyph unicode="&#xe920;" glyph-name="category_toys" horiz-adv-x="801" d="M717.156-41.873h-612.842c-34.193 0-61.974 27.782-61.974 61.974v51.423c0 10.374 2.627 20.614 7.569 29.696l53.782 196.474c10.863 19.946 31.699 32.323 54.406 32.323h37.443v-71.324h-22.439c-7.569 0-14.514-4.096-18.165-10.73l-36.241-141.535c-1.647-3.027-2.538-6.411-2.538-9.884v-51.467c0-11.398 9.261-20.658 20.658-20.658h552.826c11.398 0 20.658 9.261 20.658 20.658v51.467c0 3.473-0.846 6.856-2.493 9.884l-41.272 141.535c-3.651 6.634-10.596 10.73-18.165 10.73h-22.439v71.324h37.443c22.706 0 43.542-12.377 54.406-32.323l53.782-196.474c4.942-9.082 7.569-19.322 7.569-29.696v-51.423c0-34.193-27.826-61.974-61.974-61.974zM410.758 81.987c-141.357 0-194.56 53.293-194.56 123.949v62.019c0 12.11 3.606 23.997 9.884 35.306-6.589 14.47-9.884 30.364-9.884 47.371v62.019c0 15.449 5.521 30.675 15.672 44.655-10.285 16.963-15.672 36.107-15.672 57.077v41.272c0 70.701 53.203 391.034 194.56 391.034 141.312 0 194.515-320.334 194.515-391.034v-41.272c0-21.415-5.61-40.871-16.295-58.056 9.795-13.802 16.295-28.449 16.295-43.676v-62.019c0-17.319-3.295-33.525-10.195-48.217 6.055-11.086 10.195-22.617 10.195-34.46v-62.019c0-70.656-53.203-123.949-194.515-123.949zM410.802 141.112c97.235 0 125.997 35.885 125.997 67.985v39.491c-30.319-13.846-71.457-21.949-126.041-21.949-54.539 0-95.677 8.103-125.952 21.86v-39.402c0-32.1 28.717-67.985 125.997-67.985zM278.394 360.604c0-33.747 30.186-71.413 132.408-71.413 102.177 0 132.363 37.665 132.363 71.413v53.604c0 0.49-0.312 0.979-0.356 1.469-30.765-15.716-73.461-25.288-132.051-25.288-58.546 0-101.242 9.528-132.007 25.244-0.045-0.49-0.356-0.979-0.356-1.425v-53.604zM543.21 571.058c0 33.703-30.23 302.214-132.408 302.214-102.222 0-132.452-268.511-132.452-302.214v-35.706c0-33.747 30.23-71.457 132.452-71.457 102.177 0 132.408 37.71 132.408 71.457v35.706z" />
<glyph unicode="&#xe921;" glyph-name="category_djen" horiz-adv-x="1088" d="M965.76 472.704l-459.392-459.392c-50.048-50.048-116.544-77.568-187.264-77.568s-137.28 27.52-187.264 77.568c-50.048 49.984-77.568 116.48-77.568 187.264 0 70.72 27.52 137.28 77.568 187.264l459.328 459.392c50.048 50.048 116.544 77.568 187.328 77.568 70.72 0 137.216-27.52 187.264-77.568 103.232-103.232 103.232-271.296 0-374.528zM208.448 333.568c-32.576-32.576-50.496-75.904-50.496-121.856 0-46.080 17.92-89.344 50.496-121.856 32.512-32.576 75.776-50.496 121.792-50.496 46.080 0 89.344 17.92 121.856 50.496l184.192 182.528-243.712 243.648-184.128-182.464zM897.472 774.912c-32.576 32.512-75.84 50.432-121.856 50.432s-89.28-17.92-121.856-50.432l-202.496-200.704 243.712-243.712 202.496 200.704c67.2 67.2 67.2 176.512 0 243.712zM726.336 655.616l-149.888-149.952-60.544 60.48 149.952 149.952c63.872 63.872 167.808 63.872 231.68 0l-60.544-60.48c-30.464 30.464-80.128 30.464-110.656 0z" />
<glyph unicode="&#xe922;" glyph-name="category_penis" horiz-adv-x="532" d="M501.146 201.83v-51.364c-0.041-3.482-0.532-6.881-1.065-10.24h1.065c0 0 28.058-23.839 28.058-79.995 0-43.5-10.486-36.618-28.18-50.34-43.786-34.038-142.131-49.725-220.037-49.725-91.505 0-187.433 20.070-225.116 53.617-15.237 13.64-23.142 31.212-23.142 46.572 0 63.57 28.221 79.872 28.221 79.872h1.065c-0.573 3.441-1.065 6.881-1.065 10.363v51.241c-12.657 15.073-19.62 31.703-19.538 48.783 0 0-0.451 22.815-0.451 59.924 0 38.216 14.172 75.899 29.164 115.835 15.196 40.346 30.843 48.783 30.843 90.972v20.029c0 37.356 7.086 90.522-6.595 133.243-11.919 37.233-21.34 66.601-21.34 86.835 0 82.493 107.848 188.498 208.036 188.498s207.995-106.004 207.995-188.498c0-20.234-9.38-49.603-21.299-86.835-13.681-42.721-6.636-95.887-6.636-133.243v-20.029c0-42.189 15.688-50.627 30.843-90.972 14.991-39.936 29.164-77.619 29.164-115.835 0-37.519-0.451-60.416-0.451-60.416 0.082-16.63-6.881-33.219-19.538-48.292zM87.9 42.045c28.508-25.436 114.401-41.861 193.085-41.861 111.084 0 202.916 31.252 203.121 60.17l-10.281 35.758c-39.526-35.758-116.408-55.951-192.84-55.951-85.77 0-156.18 26.665-192.266 57.672l-10.854-37.601c-0.041-6.267 3.277-12.165 10.035-18.186zM448.307 150.589v12.984c-43.54-20.849-102.687-33.096-167.24-33.096-65.823 0-126.075 12.698-169.861 34.284v-14.295c-0.041-6.226 2.908-12.165 8.888-18.186 25.272-25.436 82.207-41.861 160.891-41.861 111.084 0 167.199 31.252 167.322 60.17zM439.951 417.608c-15.032 41.861-30.597 53.248-30.597 100.639v19.169c0 42.639-1.147 94.822 12.943 140.902 8.643 28.221 17.572 57.385 17.572 69.919 0 42.271-71.229 142.213-158.802 142.213s-158.802-99.942-158.802-142.213c0-12.534 8.929-41.697 17.531-69.919 14.131-46.080 12.943-98.263 12.943-140.902v-19.169c0-47.391-15.565-58.778-30.597-100.639-12.534-34.898-24.412-67.83-24.412-97.444 0-35.389 0.451-57.016 0.451-57.098-0.041-9.011 4.137-17.736 12.411-26.419 28.836-30.269 97.321-50.668 170.476-50.668 73.114 0 141.599 20.398 170.435 50.668 8.274 8.684 12.452 17.408 12.411 25.887 0 0.614 0.41 22.241 0.41 57.631 0 29.614-11.837 62.546-24.371 97.444zM281.068 667.177c-56.607 0-96.42 18.514-117.309 47.104-6.144 8.479-5.202 31.334 2.13 38.461 7.291 7.086 18.227 6.021 24.412-2.458 11.919-16.302 40.182-32.85 90.767-32.85s78.848 16.548 90.767 32.85c6.144 8.479 17.121 9.544 24.412 2.458 7.332-7.127 8.274-29.983 2.089-38.461-20.849-28.59-60.662-47.104-117.268-47.104z" />
<glyph unicode="&#xe923;" glyph-name="category_rast" horiz-adv-x="904" d="M749.267 211.938c-107.821-115.592-293.406-157.937-415.985-157.937-29.395 0-55.236 2.409-75.415 6.927-23.733 5.24-38.792 29.154-33.672 53.429s28.431 39.816 52.224 34.455c82.221-18.131 301.297 9.457 409.299 125.169 128.361 137.517 165.406 365.809 95.112 558.923-80.595-42.165-162.575-66.5-242.327-90.112-136.975-40.599-266.36-78.968-380.928-203.836-54.453-59.332-103.304-218.293-30.6-333.583 100.834 155.528 252.386 306.116 460.8 455.62 19.938 14.276 47.285 9.336 61.259-11.023 13.914-20.299 9.096-48.369-10.782-62.584-284.792-204.258-459.053-407.311-532.841-620.785-6.385-18.492-23.311-29.997-41.442-29.997-4.879 0-9.818 0.843-14.637 2.59-22.889 8.252-34.876 33.912-26.805 57.344 14.818 42.827 34.455 84.992 56.44 126.916-125.53 149.263-80.595 373.338 14.517 477.003 131.072 142.878 278.227 186.488 420.563 228.653 93.003 27.528 180.766 53.549 265.457 105.833l41.502 25.6 20.902-44.755c108.845-233.773 69.933-529.769-92.642-703.849z" />
<glyph unicode="&#xe924;" glyph-name="man" horiz-adv-x="887" d="M578.082 287.642c21.709 9.626 38.98 0 38.98 0s2.185-1.911 15.155-30.925c13.039-29.013 237.022-173.534 250.743-184.593 11.947-9.626-2.321-111.070-6.007-135.987h-868.42c-3.686 24.917-17.954 126.362-6.007 135.987 13.653 11.059 237.773 155.58 250.743 184.593s15.155 30.925 15.155 30.925c0 0 17.34 9.626 38.98 0 21.641-9.694-49.835 36.727-62.805 143.087-1.092 8.67-2.185 15.974-3.277 21.982l-2.662-0.068c-13.107 18.159-46.353 58.982-50.586 71.953-5.052 15.292-16.247 72.977-7.987 82.876 8.26 9.967 10.24 13.926 10.24 13.926s-1.638 7.646-4.164 19.524c-16.93 55.637-43.622 191.488 6.485 207.394 28.604 9.148 36.454 9.216 36.796 6.758-5.598-5.325-8.67-8.67-8.67-8.67s9.079 5.939 8.67 8.67c26.351 25.122 110.046 95.983 210.057 87.996 39.322-3.14 65.399-4.028 83.149-3.55 13.722 3.072 34.475 8.124 46.694 13.175 0.068 0 0.068 0.068 0.068 0.068 0.887 0.546 1.707 0.819 2.389 1.024 4.437 1.98 7.305 4.028 7.578 5.871 1.434 8.806 3.482-21.094-2.935-33.997 1.092-3.686 4.642-11.469 14.814-13.175 8.806 3.413 16.179 7.1 16.179 9.899 0 5.188 5.803-13.107 1.024-28.604 1.365-7.373 2.867-14.95 8.602-18.364 13.039-7.714 84.446-69.632 75.844-114.074-8.67-44.51-26.010-148.89-26.010-148.89s2.185-3.891 10.854-13.517c8.602-9.694 0-67.652-4.369-83.149-2.116-7.714-13.995-25.463-25.805-42.53h2.185c-3.14-7.031-6.076-19.934-8.875-42.53-12.971-106.359-84.446-152.781-62.805-143.087z" />
<glyph unicode="&#xe925;" glyph-name="desctop" horiz-adv-x="1475" d="M1465.59 28.16l-118.948 190.996v696.689c0 24.494-20.070 44.36-44.769 44.36h-1129.636c-24.699 0-44.728-19.866-44.728-44.36v-696.689l-121.201-194.642c-5.489-8.765-7.578-18.964-6.267-28.836v-10.158c0-27.279 22.323-49.398 49.889-49.398h1374.249c27.566 0 49.93 22.118 49.93 49.398v9.38c0.328 2.089 0.655 4.178 0.655 6.349 0 10.117-3.4 19.456-9.175 26.911zM217.006 871.526h1040.097v-620.585h-1040.097v620.585zM898.007 45.609v41.411h-321.905v-41.411h-451.502l70.984 113.951h1083.023l70.943-113.951h-451.543z" />
<glyph unicode="&#xe926;" glyph-name="reviews" horiz-adv-x="990" d="M860.979 522.684h-63.283v-84.378c0-23.689-18.637-42.257-42.428-42.257-13.244 0-25.463 6.178-33.553 16.964l-82.261 109.67h-79.735l-38.502-115.405c-5.837-17.51-21.504-28.843-40.004-28.843-18.466 0-34.167 11.332-40.004 28.843l-38.502 115.405h-79.735l-82.261-109.67c-14.609-19.49-44.885-21.879-62.532-5.666-8.67 7.987-13.414 18.978-13.414 30.959v84.378h-42.223c-58.129 0-105.472 47.343-105.472 105.506v210.944c0 58.197 47.343 105.506 105.472 105.506h738.441c58.163 0 105.472-47.309 105.472-105.506v-210.944c0-58.163-47.309-105.506-105.472-105.506zM924.262 839.134c0 34.918-28.399 63.317-63.283 63.317h-738.441c-34.884 0-63.283-28.399-63.283-63.317v-210.944c0-34.918 28.399-63.317 63.283-63.317h84.412v-126.566l94.925 126.566h131.243l48.094-144.247c0.137 0 0.205 0.034 0.205 0.034l47.889 144.213h131.243l94.925-126.566v126.566h105.506c34.884 0 63.283 28.399 63.283 63.317v210.944zM228.898 116.804c20.719 0 45.158-3.823 68.847-10.82l-11.913-40.448c-19.627 5.769-40.38 9.079-56.934 9.079-50.108 0-127.454-26.863-127.454-62.566v-58.982h-42.189v58.982c0 73.148 112.367 104.755 169.643 104.755zM123.324 248.422c0 57.617 47.172 104.516 105.097 104.516 57.958 0 105.097-46.899 105.097-104.516s-47.138-104.516-105.097-104.516c-57.924 0-105.097 46.899-105.097 104.516zM291.328 248.422c0 34.338-28.228 62.293-62.908 62.293s-62.908-27.955-62.908-62.293c0-34.338 28.228-62.293 62.908-62.293s62.908 27.955 62.908 62.293zM377.481 248.422c0 57.617 47.138 104.516 105.097 104.516s105.131-46.899 105.131-104.516c0-57.617-47.172-104.516-105.131-104.516s-105.097 46.899-105.097 104.516zM545.485 248.422c0 34.338-28.228 62.293-62.908 62.293s-62.908-27.955-62.908-62.293c0-34.338 28.228-62.293 62.908-62.293s62.908 27.955 62.908 62.293zM481.212 116.804c57.003 0 168.789-31.607 168.789-104.755v-58.982h-42.189v58.982c0 35.703-76.8 62.566-126.601 62.566s-126.566-26.863-126.566-62.566v-58.982h-42.223v58.982c0 73.148 111.787 104.755 168.789 104.755zM735.744 352.939c57.958 0 105.131-46.899 105.131-104.516s-47.172-104.516-105.131-104.516c-57.958 0-105.097 46.899-105.097 104.516s47.138 104.516 105.097 104.516zM735.744 186.129c34.679 0 62.908 27.955 62.908 62.293s-28.228 62.293-62.908 62.293c-34.679 0-62.908-27.955-62.908-62.293s28.228-62.293 62.908-62.293zM903.168 12.049v-58.982h-42.189v58.982c0 35.703-76.8 62.566-126.601 62.566-16.794 0-37.683-3.311-57.344-9.079l-11.913 40.448c23.347 6.895 48.572 10.82 69.257 10.82 57.003 0 168.789-31.607 168.789-104.755z" />
</font>
</defs>
</svg>
